myGully.com Boerse.SH - BOERSE.AM - BOERSE.IO - BOERSE.IM
Zurück   myGully.com > Multimedia > Videobearbeitung
Seite neu laden

Lange Youtube videos downloaden und schneiden

Antwort
Themen-Optionen Ansicht
Ungelesen 07.12.18, 19:18   #1
Samara1977
Anfänger
 
Registriert seit: Sep 2009
Beiträge: 48
Bedankt: 82
Samara1977 gewöhnt sich langsam dran | 51 Respekt Punkte
Standard Lange Youtube videos downloaden und schneiden

hallo

brauche bitte dringend hilfe! habe dieses youtube video [ Link nur für registrierte Mitglieder sichtbar. Bitte einloggen oder neu registrieren ] als mp4 geladen. es dauert aber 10 stunden und ist über 5gb gross! ich möchte das video auf meinen fernseher mit usb laufen lassen aber da funktionieren nur dateien unter 3gb womit kann ich das video schneiden das die gb kleiner wären denn mir würde es auch reichen wenn das video nur 80 minuten dauern würde.

bitte nur ganz einfache programme hab zb den YTD Video Downloader versucht aber da kommen beim schneiden immer fehlermeldungen auch bleibt das video dann am tv gerne hängen
Samara1977 ist offline   Mit Zitat antworten
Ungelesen 08.12.18, 05:03   #2
nissan_skyline
Anfänger
 
Benutzerbild von nissan_skyline
 
Registriert seit: Jul 2009
Ort: Germany
Beiträge: 41
Bedankt: 31
nissan_skyline ist noch neu hier! | 0 Respekt Punkte
Standard

Mit Avidemux mp4 schneiden,dann vielleicht mit handbrake RF 22 und die auflösung einstellen was du willst 25 frames 192 ac3 ton so mache ich es bei großen files und bekomme kleinere raus.Bei noch fragen schick mir ne PN.
Greetz Skyline
nissan_skyline ist offline   Mit Zitat antworten
Folgendes Mitglied bedankte sich bei nissan_skyline:
Samara1977 (08.12.18)
Ungelesen 08.12.18, 13:35   #3
Wornat1959
Erfahrenes Mitglied
 
Registriert seit: Aug 2016
Beiträge: 747
Bedankt: 1.478
Wornat1959 mag den Abfluss Flavour! | 43395 Respekt PunkteWornat1959 mag den Abfluss Flavour! | 43395 Respekt PunkteWornat1959 mag den Abfluss Flavour! | 43395 Respekt PunkteWornat1959 mag den Abfluss Flavour! | 43395 Respekt PunkteWornat1959 mag den Abfluss Flavour! | 43395 Respekt PunkteWornat1959 mag den Abfluss Flavour! | 43395 Respekt PunkteWornat1959 mag den Abfluss Flavour! | 43395 Respekt PunkteWornat1959 mag den Abfluss Flavour! | 43395 Respekt PunkteWornat1959 mag den Abfluss Flavour! | 43395 Respekt PunkteWornat1959 mag den Abfluss Flavour! | 43395 Respekt PunkteWornat1959 mag den Abfluss Flavour! | 43395 Respekt Punkte
Standard

Wenn du dir das YouTubeVideo mit dem JDownloader anschaust in der Link-Übersicht findest du 4 Datenquellen:
Zitat:
  • Native Soft Drum Meditation Music _ Navajo Drums _ Native American Drums _ Trace State _ Deep Trance (192kbit_AAC).m4a
  • Native Soft Drum Meditation Music _ Navajo Drums _ Native American Drums _ Trace State _ Deep Trance (1080p_25fps_H264-128kbit_AAC).mp4
  • Native Soft Drum Meditation Music _ Navajo Drums _ Native American Drums _ Trace State _ Deep Trance (Beschreibung).txt
  • Native Soft Drum Meditation Music _ Navajo Drums _ Native American Drums _ Trace State _ Deep Trance (BQ).jpg
Du musst dir davon nur die erste Quelle wirklich runterladen. Der JDownloader zeigt dir zwar 6 GiB an, aber wenn du das lädst kommst du am Ende nur auf 545 MiB.

Wirklich drin steckt folgendes:
Zitat:
Input #0, mov,mp4,m4a,3gp,3g2,mj2, from 'Native Soft Drum Meditation Music _ Navajo Drums _ Native American Drums _ Trace State _ Deep Trance (192kbit_AAC).m4a':
Metadata:
major_brand : isom
minor_version : 512
compatible_brands: isomiso2mp41
title : Native Soft Drum Meditation Music | Navajo Drums | Native American Drums | Trace State | Deep Trance
artist : The Relaxed Guy
date : 2017
encoder : Lavf57.83.100
comment : [ Link nur für registrierte Mitglieder sichtbar. Bitte einloggen oder neu registrieren ]
Duration: 10:00:13.50, start: 0.000000, bitrate: 126 kb/s
Stream #0:0(eng): Audio: aac (LC) (mp4a / 0x6134706D), 44100 Hz, stereo, fltp, 125 kb/s (default)
Metadata:
handler_name : SoundHandler
Es handelt sich um eine Audioquelle mit Codec aac und mit 125 kb/s Bitrate.
Wenn dir jetzt die Videoinformation nicht weiter wichtig ist (weil ansich ja nur 10 Stunden redundant das gleiche gezeigt wird) musst du dir einfach daraus ein passendes Format bauen das dein Fernseher beherrscht.

Jetzt kannste optional noch das Bild dazu holen, also die vierte Datenquelle. Sind nur knappe 79 KiB.

Und dann musste dir eins der freien Tools holen. Kannst zum Beispiel sowas nehmen wie "XMedia Recode". Damit bauste dir das als ein mp4 selber zusammen.

Wichtig ist das du bei den Einstellungen "Copy" als Codec einstellst. Damit behällst du die Orginalqualität.
Audioquelle ist das m4a und Videoquelle ist das jpg. Das ist dann einfach ein Standbild.

Am Ende kommst auf ein mp4 das grobe etwa 0.5 GiB sein sollte. Und das für die ganzen 10 Stunden und ohne das du irgendwelche Einbussen hast.
__________________
"Mitleid und Erbarmen hielten Bilbos Hand zurück. Viele, die leben, verdienen den Tod und manche, die sterben, verdienen das Leben. Kannst du es ihnen geben, Frodo? Dann sei nicht so rasch mit einem Todesurteil bei der Hand. Selbst die ganz Weisen erkennen nicht alle Absichten. Mein Herz sagt mir, dass Gollum noch eine Rolle zu spielen hat, zum Guten oder zum Bösen, ehe das Ende kommt." (Gandalf zu Frodo)
Wornat1959 ist offline   Mit Zitat antworten
Folgendes Mitglied bedankte sich bei Wornat1959:
Samara1977 (08.12.18)
Ungelesen 08.12.18, 14:10   #4
Samara1977
Anfänger
 
Registriert seit: Sep 2009
Beiträge: 48
Bedankt: 82
Samara1977 gewöhnt sich langsam dran | 51 Respekt Punkte
Standard

herzlichen dank euch allen! ihr seit echt super. i
ch weis jetzt das es irgendwie geht nur leider kenn ich mich glaube ich mit den ganzen programmen nicht aus. zb finde ich bei "XMedia Recode" keinen Codec Copy. und naja bewegen sollte sich das video schon kein standbild.
Samara1977 ist offline   Mit Zitat antworten
Ungelesen 08.12.18, 14:49   #5
Wornat1959
Erfahrenes Mitglied
 
Registriert seit: Aug 2016
Beiträge: 747
Bedankt: 1.478
Wornat1959 mag den Abfluss Flavour! | 43395 Respekt PunkteWornat1959 mag den Abfluss Flavour! | 43395 Respekt PunkteWornat1959 mag den Abfluss Flavour! | 43395 Respekt PunkteWornat1959 mag den Abfluss Flavour! | 43395 Respekt PunkteWornat1959 mag den Abfluss Flavour! | 43395 Respekt PunkteWornat1959 mag den Abfluss Flavour! | 43395 Respekt PunkteWornat1959 mag den Abfluss Flavour! | 43395 Respekt PunkteWornat1959 mag den Abfluss Flavour! | 43395 Respekt PunkteWornat1959 mag den Abfluss Flavour! | 43395 Respekt PunkteWornat1959 mag den Abfluss Flavour! | 43395 Respekt PunkteWornat1959 mag den Abfluss Flavour! | 43395 Respekt Punkte
Standard

Ich hab mir grade einen kurzen Teil der 2. Datenquelle die der JDownloader anzeigt geholt. Das ist das Monstrum warum das so groß wird. Ganz runterladen dauert mir grade zu lange weil YouTube das nur recht langsam anbietet beim Download.

Der Ausschnitt den ich geholt hab hat aber folgende Metainfos:
Zitat:
Input #0, mov,mp4,m4a,3gp,3g2,mj2, from 'Native Soft Drum Meditation Music _ Navajo Drums _ Native American Drums _ Trace State _ Deep Trance (1080p_25fps_H264-128kbit_AAC).mp4':
Metadata:
major_brand : dash
minor_version : 0
compatible_brands: iso6avc1mp41
creation_time : 2018-09-19T02:45:16.000000Z
Duration: 10:00:13.48, start: 0.000000, bitrate: 35 kb/s
Stream #0:0(und): Video: h264 (High) (avc1 / 0x31637661), yuv420p(tv, bt709, progressive), 1920x1080 [SAR 1:1 DAR 16:9], 35 kb/s, 25 fps, 25 tbr, 90k tbn, 50 tbc (default)
Metadata:
creation_time : 2018-09-19T02:45:16.000000Z
handler_name : VideoHandler
Das heisst da drin liegt nur die reine Videoquelle.
Und die kannst du als Videoquelle benutzen beim "XMedia Recode". Damit ist das Standbild weg. Aber damit es kleiner wird solltest du aber mal schauen ob du nicht runterskalierst auf 1280x720 statt der 1920x1080. Das heisst die Videoquelle (aber nicht die Audioquelle) solltest du recoden mit "XMedia Recode".

Zur Bedienung von XMedia Recode lies mal hier:
[ Link nur für registrierte Mitglieder sichtbar. Bitte einloggen oder neu registrieren ]

Da findest du ein Screenshot. Der Modus-Paramter für Audio den würde ich auf Copy einstellen.
Beim Video kannste den Codec so lassen. Aber du musst mal schaun wo man da runterskalieren kann.
Dazu hab ich leider grade kein Screenshot gefunden. Aber schau dir diese kurze Anleitung an:
[ Link nur für registrierte Mitglieder sichtbar. Bitte einloggen oder neu registrieren ]

Je kleiner du wirst desto weniger gross wird das Output.mp4 das du dann bekommst.
__________________
"Mitleid und Erbarmen hielten Bilbos Hand zurück. Viele, die leben, verdienen den Tod und manche, die sterben, verdienen das Leben. Kannst du es ihnen geben, Frodo? Dann sei nicht so rasch mit einem Todesurteil bei der Hand. Selbst die ganz Weisen erkennen nicht alle Absichten. Mein Herz sagt mir, dass Gollum noch eine Rolle zu spielen hat, zum Guten oder zum Bösen, ehe das Ende kommt." (Gandalf zu Frodo)
Wornat1959 ist offline   Mit Zitat antworten
Antwort

Themen-Optionen
Ansicht

Forumregeln
Du kannst keine neue Themen eröffnen
Du kannst keine Antworten verfassen
Du kannst keine Anhänge posten
Du kannst nicht deine Beiträge editieren

BB-Code ist An.
Smileys sind An.
[IMG] Code ist An.
HTML-Code ist Aus.

Gehe zu


Alle Zeitangaben in WEZ +1. Es ist jetzt 05:05 Uhr.


Sitemap

().